Extratorrent2 | - Sairat (2016) Marathi HDRip - 720p - x264 - AAC - 1 4GB - HC-ESub mkv | Der Pate von Bombay

Fanney Khan 2018 Hindi Pre (1GB) x264 AAC - Hon3yHD

  • Category Movies
  • Type Bollywood
  • Language English
  • Total size 1.0 GB
  • Uploaded By Hon3yHD
  • Downloads 0
  • Last checked 33 seconds ago
  • Date uploaded 48 seconds ago
  • Seeders 0
  • Leechers 0

Infohash : F6B627E54D76A75CD38B150FB71B131C01DB983E

Fanney Khan 2018 Hindi Pre (1GB) x264 AAC -Hon3yHD


Format : Matroska
Format version : Version 4 / Version 2
File size : 1.00 GiB
Duration : 2 h 3 min
Overall bit rate : 1 160 kb/s
Movie name : Fanney Khan 2018- Hon3yHD


Video
ID : 1
Format : AVC
Format/Info : Advanced Video Codec
Format profile : [email protected]
Format settings : CABAC / 8 Ref Frames
Format settings, CABAC : Yes
Format settings, RefFrames : 8 frames
Codec ID : V_MPEG4/ISO/AVC
Duration : 2 h 3 min
Bit rate : 1 030 kb/s
Width : 688 pixels
Height : 288 pixels
Display aspect ratio : 2.40:1
Frame rate mode : Constant
Frame rate : 25.000 FPS
Color space : YUV
Chroma subsampling : 4:2:0
Bit depth : 8 bits
Scan type : Progressive
Bits/(Pixel*Frame) : 0.208
Stream size : 912 MiB (89%)
Writing library : x264 core 155 r2901 7d0ff22
Encoding settings : cabac=1 / ref=8 / deblock=1:0:0 / analyse=0x3:0x133 / me=umh / subme=9 / psy=1 / psy_rd=1.00:0.00 / mixed_ref=1 / me_range=24 / chroma_me=1 / trellis=2 / 8x8dct=1 / cqm=0 / deadzone=21,11 / fast_pskip=0 / chroma_qp_offset=-2 / threads=12 / lookahead_threads=1 / sliced_threads=0 / nr=300 / decimate=1 / interlaced=0 / bluray_compat=0 / constrained_intra=0 / bframes=3 / b_pyramid=2 / b_adapt=2 / b_bias=0 / direct=3 / weightb=1 / open_gop=0 / weightp=2 / keyint=250 / keyint_min=25 / scenecut=40 / intra_refresh=0 / rc_lookahead=60 / rc=2pass / mbtree=1 / bitrate=1030 / ratetol=1.0 / qcomp=0.60 / qpmin=0 / qpmax=69 / qpstep=4 / cplxblur=20.0 / qblur=0.5 / ip_ratio=1.40 / aq=1:1.00
Language : Hindi
Default : Yes
Forced : No
Color range : Limited
Color primaries : BT.709
Transfer characteristics : BT.709
Matrix coefficients : BT.709

Audio
ID : 2
Format : AAC
Format/Info : Advanced Audio Codec
Format profile : LC
Codec ID : A_AAC-2
Duration : 2 h 3 min
Bit rate : 128 kb/s
Channel(s) : 2 channels
Channel positions : Front: L R
Sampling rate : 44.1 kHz
Frame rate : 43.066 FPS (1024 SPF)
Compression mode : Lossy
Delay relative to video : 10 ms
Stream size : 113 MiB (11%)
Language : Hindi
Default : Yes
Forced : No

Files:

Fanney Khan 2018 Hindi Pre (1GB) x264 AAC -Hon3yHD
  • Fanney Khan 2018 Hindi Pre (1GB) x264 AAC -Hon3yHD.mkv (1.0 GB)
  • Sample.mkv (15.0 MB)
  • Torrent Seed By www.cyber-planet.in.txt (0.1 KB)
  • Hon3yHD.com.txt (0.0 KB)

There are currently no comments. Feel free to leave one :)

Code:

  • udp://tracker.coppersurfer.tk:6969/announce
  • udp://tracker.pirateparty.gr:6969/announce
  • udp://shadowshq.yi.org:6969/announce
  • udp://eddie4.nl:6969/announce
  • udp://tracker.leechers-paradise.org:6969/announce
  • udp://tracker.opentrackr.org:1337/announce
  • udp://p4p.arenabg.ch:1337/announce
  • udp://p4p.arenabg.com:1337/announce
  • udp://9.rarbg.me:2710/announce
  • udp://9.rarbg.to:2710/announce
  • udp://tracker.coppersurfer.tk:80/announce
  • udp://tracker.vanitycore.co:6969/announce
  • udp://public.popcorn-tracker.org:6969/announce
  • udp://tracker.opentrackr.org:1337/announce
  • udp://tracker.zer0day.to:1337/announce
  • udp://tracker.torrent.eu.org:451
  • udp://tracker.pirateparty.gr:6969/announce
  • udp://open.stealth.si:80/announce
  • udp://explodie.org:6969/announce
  • udp://tracker.open-internet.nl:6969/announce
  • udp://IPv6.open-internet.nl:6969/announce